#TITLE:ThroughTheGates;
#SUBTITLE:;
#ARTIST:Unknown artist;
#TITLETRANSLIT:;
#SUBTITLETRANSLIT:;
#ARTISTTRANSLIT:;
#CREDIT:;
#BANNER:dimrain3BG.jpg;
#BACKGROUND:Dimrain2BG.jpg;
#LYRICSPATH:;
#CDTITLE:;
#MUSIC:ThroughTheGates.mp3;
#OFFSET:0.000;
#SAMPLESTART:100.000;
#SAMPLELENGTH:12.000;
#SELECTABLE:YES;
#BPMS:0.000=80.030,18.000=240.090,308.000=80.030,316.000=320.119,508.000=40.010;
#STOPS:18.000=10.000
;
#BGCHANGES:0.000=DimrainBG.JPG=1.000=0=0=1,
316.000=Dimrain2BG.jpg=1.000=1=0=1,
496.000=dimrain3BG.jpg=1.000=1=0=1,
99999=-nosongbg-=1.000=0=0=0 // don't automatically add -songbackground-
;
// cache tags:
#FIRSTBEAT:0.000;
#LASTBEAT:522.000;
#SONGFILENAME:Songs/nhac/ThroughTheGates/ThroughTheGates.sm;
#HASMUSIC:1;
#HASBANNER:1;
#MUSICLENGTH:157.701;
// end cache tags

//---------------dance-single - ----------------
#NOTES:
     dance-single:
     :
     Hard:
     10:
     0.472,0.528,0.095,0.133,0.000,485.000,15.000,21.000,0.000,2.000:
1001
0000
0000
0110
0000
0000
1010
0000
,
0000
0101
0000
0000
0011
0000
0000
1100
,
0000
0000
1001
0000
0000
0011
0000
0000
,
1100
0000
0000
1001
0000
0000
1010
0000
,
0000
0110
0000
0000
1001
0000
0000
1000
,
0000
0010
1000
0100
0000
0001
0010
0000
,
0100
1000
0010
1000
0000
0100
0001
0000
,
0100
1000
0000
0010
1000
0000
0010
0001
,
0010
0000
0001
0000
0100
0000
0001
0100
,
0000
1000
0000
0010
1000
0010
1000
0000
,
0000
1000
0000
0100
0000
0001
0000
0000
,
0100
1000
0000
1000
0010
0000
1000
0000
,
0100
0000
0001
0100
1000
0010
1000
0000
,
0010
0000
0001
0010
0100
1000
0000
0001
,
0000
0001
0010
0000
0100
1000
0000
0010
,
1000
0100
0000
0001
0100
1000
0010
0000
,
1000
0010
0000
0001
0010
0100
0000
0000
,
0000
1000
0000
0100
0000
0001
0100
0000
,
1000
0010
1000
0000
0000
0010
0000
0001
,
0010
0000
0001
0100
0000
0100
1000
1000
,
0000
0000
0010
1000
0000
0000
0100
0001
,
0010
0100
1000
0000
0000
0010
0000
0000
,
1000
0100
0000
0001
0100
1000
0000
0010
,
0000
0001
0000
0010
0000
0001
0100
0000
,
0001
0100
1000
0000
0010
0000
1000
0010
,
0000
0000
1000
0100
0000
1000
0100
0001
,
0000
0000
0100
1000
0000
0000
0010
1000
,
0010
0000
0001
0010
0000
0100
0000
1000
,
0000
0100
0000
0001
0010
0000
0100
1000
,
0010
0000
0000
1000
0000
0010
1000
0100
,
0000
0001
0100
0000
1000
0010
0000
0000
,
0001
0010
0000
0100
0000
1000
0010
1000
,
0000
0100
0000
0001
0010
0000
0100
0000
,
0001
0010
0000
0100
0000
0000
1000
0010
,
1000
0000
0100
0000
0001
0100
1000
0010
,
0000
0000
1000
0010
0000
0000
0100
0001
,
0010
0000
0001
0010
0000
0000
0010
1000
,
0000
0000
0010
1000
0000
0100
1000
0100
,
0000
0000
0001
0100
0000
0000
0100
0000
,
1000
0100
0001
0000
0010
0000
0001
0010
,
0000
0000
0100
1000
0010
0000
1000
0100
,
0000
0001
0000
0000
0010
0000
0000
0100
,
0000
1000
0010
1000
0000
0100
0000
0001
,
0100
1000
0000
0010
1000
0100
0000
0001
,
0010
0000
0001
0010
0000
0001
0010
0000
,
0100
1000
0000
0100
1000
0000
0100
1000
,
0000
0010
1000
0000
0010
1000
0000
0000
,
0001
0010
0000
0001
0010
0000
0001
0010
,
0000
0001
0010
0000
0010
1000
0000
0010
,
1000
0000
0010
1000
0000
0010
1000
0000
,
0100
1000
0000
0100
1000
0000
0100
1000
,
0000
1100
0000
0000
0001
0100
0000
0001
,
0100
0000
0001
0100
0000
0001
0100
0000
,
1000
0000
0000
0010
0000
0000
1000
0000
,
0000
0000
0000
0100
0100
0000
0000
0000
,
0000
1000
1000
0000
,
0020
0000
0000
0000
,
0000
0000
0000
0030
2000
0000
0000
0000
,
0000
0000
0000
0000
3000
0000
0000
0011
,
0000
0200
0000
0000
0000
0000
0000
0000
,
0000
0000
2300
0000
,
0000
0000
0000
0000
0000
0000
3000
0010
,
0200
0000
0000
0000
,
0000
0300
0001
0000
0020
0000
0000
0000
,
0000
0000
2030
0000
0000
0000
0000
3000
,
0100
0001
0100
1000
,
0000
0000
0000
0010
2000
0000
0000
0000
,
0000
0000
3000
0100
0000
0001
0000
0000
,
0020
0000
0000
0000
,
0000
0030
1000
0100
0000
0002
0000
0000
,
0000
0003
0020
0000
0000
0000
0000
0000
,
2030
0000
0000
0000
,
0000
0000
3100
0000
2000
0000
0000
3020
,
0000
0000
0030
2000
0000
3100
0000
0000
,
0002
0000
0000
0000
,
0000
0003
0010
1000
0000
0100
0000
0001
,
0000
0200
0000
0300
,
1000
0010
0100
0001
,
0010
0100
1000
0001
,
1000
0010
1000
0100
,
0001
0100
0000
1000
0000
0010
0000
1000
,
0000
0100
0000
0001
0000
0010
0000
0100
,
1000
0000
0010
0000
1000
0100
0000
0001
,
0000
0010
0001
0000
0010
0000
0000
0001
,
0100
0000
1000
0000
0000
0010
0000
0000
,
1000
0100
0000
0000
0001
0100
0000
1000
,
0000
0010
0000
1000
0000
0010
0000
1000
,
0010
0000
1000
0010
0000
0001
0010
0000
,
0000
0100
0000
1000
0000
0100
0000
0001
,
0100
0000
1000
0000
0010
1000
0000
0010
,
0000
0100
0000
0001
0000
0010
0000
0001
,
0010
0000
0000
0001
0100
0000
1000
0000
,
0100
1000
0000
0100
0000
0001
0010
0000
,
0100
1000
0010
1000
,
0100
0000
0001
0000
0100
0000
1000
0010
,
0000
1000
0000
0000
1000
0000
0010
0000
,
0000
0100
0000
0001
0000
0010
0000
0100
,
0000
0100
0001
0000
,
0010
0000
0010
0000
1000
0000
0010
1000
,
0000
0100
0001
0000
,
0100
0000
1000
0000
0010
1000
0000
0100
,
0000
0001
0001
0000
,
0010
0000
0100
0000
1000
0010
0000
1000
,
0000
0100
0001
0000
,
0100
0000
1000
0000
0010
1000
0000
0100
,
0000
0001
0100
0000
,
1000
0000
0001
0010
0000
0001
0000
0000
,
0000
0010
1000
0000
,
0100
1000
0100
0001
,
0000
0100
1000
0000
,
0010
1000
0000
0100
0000
0001
0000
0100
,
0000
0000
0000
1000
0000
0010
0000
1000
,
0000
0100
0000
0000
0000
0001
0000
0100
,
0000
0000
0000
1000
0000
1000
0000
0000
,
0010
1000
0100
0001
,
0010
0000
0000
0001
0000
0010
0000
0000
,
0001
0000
0100
0000
1000
0000
0100
0001
,
0000
0000
0000
0010
0000
0100
0000
0000
,
1000
0010
1000
0010
,
0000
0001
0000
0010
0000
0000
0001
0000
,
0000
0100
0000
0100
0000
1000
0000
0100
,
0000
0000
0000
0001
0000
0100
0000
0000
,
1000
0010
0001
0010
,
0000
0000
0100
0000
1000
0010
0000
0000
,
1000
0000
0100
0000
0001
0010
0000
0100
,
0000
1000
0010
1000
,
0100
0000
0001
0000
0100
1000
0000
0000
,
0020
0200
0302
2003
,
3030
0000
0000
0000
;

//---------------dance-single - ----------------
#NOTES:
     dance-single:
     :
     Easy:
     1:
     0.326,0.538,0.571,0.013,0.000,268.000,90.000,2.000,0.000,0.000:
1001
0000
0000
0110
,
0000
0000
0011
0000
,
0000
1100
0000
0000
,
0110
0000
0000
0101
,
0000
0000
0110
0000
,
1000
0010
0000
0100
,
0001
0000
1000
0110
,
0000
1000
0001
0000
,
0010
0000
0110
0000
,
1000
0001
0010
0000
,
1001
0010
0100
0010
,
1000
0001
0000
0010
,
1000
0000
0010
0000
,
0110
0010
0001
0000
,
0010
0100
0000
1000
,
0011
0000
0000
1100
,
0000
0000
0001
0100
,
0000
0010
0001
0000
,
1100
0000
0000
0000
,
0110
0000
0000
0011
,
0000
0101
0000
0000
,
1100
0000
0000
1010
,
0000
0000
0011
0000
,
0000
0101
0000
0000
,
0100
1000
0000
1010
,
0000
0000
0110
0000
,
0000
0000
1001
0000
,
0100
0010
0000
0011
,
0000
0000
1100
0000
,
0000
0110
0000
0000
,
0011
0000
0000
1100
,
0000
0000
0000
0101
,
0000
0000
0011
0000
,
1100
0000
0000
0000
,
1001
0000
0110
0000
,
0000
0011
0000
0000
,
1100
0000
0000
0101
,
0000
0000
1010
0000
,
0000
0011
0000
0000
,
1100
0000
0000
0101
,
0000
0000
0011
0000
,
0000
0010
1000
0000
,
0000
1100
0000
0000
,
0101
0000
0010
0001
,
0000
1000
0100
0000
,
0000
0011
0000
1100
,
0000
0000
0101
0000
,
0000
1010
0000
0000
,
0110
0000
0000
0000
,
1001
0000
0110
0000
,
0000
1001
0000
0000
,
0110
0000
0000
1001
,
0000
0000
0011
0000
,
0000
1100
0000
0000
,
0100
0001
0000
0000
,
1010
0000
0000
0101
,
0000
0011
0000
0000
,
1100
0000
0000
1010
,
0000
0000
0100
0000
,
0001
0010
1000
0000
,
0100
0001
0100
1000
,
0010
0000
1100
0001
,
0100
1000
0010
0000
,
1000
0100
0001
0010
,
0100
0000
0001
0010
,
0000
1000
0010
0000
,
1000
0100
0000
0001
,
0100
0000
0001
0010
,
0000
1000
0010
0000
,
0010
0100
0000
0001
,
0010
0100
1000
0000
,
0000
1000
0010
0000
,
0001
0010
0000
0001
,
0100
0000
1100
0000
,
0000
0001
0010
0000
,
1000
0010
0000
0100
,
0001
0000
0100
1000
,
0000
0110
1001
0110
,
1001
0110
1001
0110
,
1001
0010
0000
0000
,
1000
0000
0100
0000
,
0001
0000
0010
0000
,
0100
0000
1000
0000
,
0001
0000
0010
0000
,
0100
0000
1000
0000
,
0100
0000
0001
0000
,
0010
0000
1000
0000
,
0100
0001
0010
0000
,
0100
0000
1000
0000
,
0100
0000
0001
0000
,
0010
0000
1000
0000
,
0100
0000
0001
0000
,
0010
0000
0100
1000
,
0000
0010
0000
1000
,
0100
0000
0001
0000
,
0010
0000
0100
0000
,
1000
0000
0001
0000
,
0010
0000
0100
1000
,
0000
0100
0000
0001
,
0010
0000
0100
0000
,
1000
0000
0010
0000
,
1000
0000
0100
0000
,
0001
0000
0010
0100
,
0000
1000
0000
0010
,
1000
0000
0100
0000
,
0001
0000
0010
0100
,
0000
1000
0000
0010
,
0000
1000
0100
0000
,
0001
0000
0010
0000
,
0100
0000
1000
0000
,
0010
0000
0100
0000
,
0001
0000
0011
0000
,
0100
0000
1100
0000
,
0100
0000
0101
0000
,
0100
0000
0011
0000
,
0010
0000
0100
0000
,
1000
0000
0010
0000
,
1000
0000
1001
0000
,
0010
0000
0100
0000
,
0001
0000
0110
0000
,
0010
0000
1000
0000
,
0100
0000
0101
0000
,
0100
0000
1100
0000
,
1000
0000
1010
0000
,
0010
0000
0011
0000
,
0100
0000
0101
0000
,
0100
0000
1100
0000
,
1010
0101
0011
1100
,
0110
0101
0000
2200
,
0000
0000
0000
0000
,
0000
0000
3300
0000
;

//---------------dance-single - ----------------
#NOTES:
     dance-single:
     :
     Medium:
     6:
     0.280,0.365,0.006,0.146,0.000,285.000,1.000,23.000,0.000,0.000:
1000
0000
0000
0010
0000
0000
1000
0000
,
0000
0001
0000
0000
0010
0000
0000
0100
,
0000
0000
0001
0000
0000
0010
0000
0000
,
0100
0000
0000
1000
0000
0000
0010
0000
,
0000
0100
0000
0000
0001
0000
0000
0000
,
0000
1000
0000
0010
,
0100
0010
0000
0001
,
0100
0000
1000
0010
,
0010
0001
0100
0001
,
0000
0000
1000
1000
,
0000
0000
0000
0000
,
0100
0000
0010
1000
,
0100
0001
1000
1000
,
0010
0001
0100
0000
,
0000
0010
0100
0000
,
1000
0000
0100
0010
,
1000
0000
0010
0000
,
0000
0000
0000
0100
,
1000
1000
0000
0000
,
0010
0001
0000
1000
,
0000
0010
0000
0100
,
0010
1000
0000
0000
,
1000
0000
0100
0000
,
0000
0000
0000
0100
,
0001
1000
0010
1000
,
0000
1000
0000
0100
,
0000
0100
0000
0010
,
0010
0001
0000
1000
,
0000
0000
0010
0100
,
0010
0000
0000
1000
,
0000
0100
1000
0000
,
0001
0000
0000
0010
,
0000
0000
0010
0100
,
0001
0000
0000
1000
,
1000
0100
0001
1000
,
0000
1000
0000
0100
,
0010
0001
0000
0010
,
0000
0010
0000
1000
,
0000
0001
0000
0100
,
1000
0001
0010
0001
,
0000
0100
0010
1000
,
0000
0000
0010
0000
,
0000
0010
0000
0000
,
0100
0000
1000
0000
,
0010
0001
0000
0010
,
0100
0000
1000
0100
,
0000
1000
0010
0000
,
0001
0000
0010
0001
,
0000
0010
0010
0000
,
1000
0010
0000
1000
,
0100
0000
1000
0100
,
0000
0000
0001
0000
,
0100
0001
0000
0100
,
1000
0000
0000
1000
,
0000
0000
0100
0000
,
0000
1000
1000
0000
,
0020
0000
0000
0000
,
0000
0000
0000
0030
2000
0000
0000
0000
,
0000
0000
3000
0000
,
0000
0200
0000
0000
0000
0000
0000
0000
,
0000
0000
2300
0000
,
0000
0000
0000
3000
,
0200
0000
0000
0000
,
0000
0300
0001
0000
0020
0000
0000
0000
,
0000
0000
2030
0000
0000
0000
0000
3000
,
0100
0001
0100
1000
,
0000
0000
2000
0000
,
0000
3000
0000
0000
,
0020
0000
0000
0000
,
0000
0030
1000
0000
0002
0000
0000
0000
,
0000
0003
0020
0000
0000
0000
0000
0000
,
2030
0000
0000
0000
,
0000
0000
3100
0000
2000
0000
0020
3000
,
0000
0000
2030
0000
0000
3000
0000
0000
,
0002
0000
0000
0000
,
0000
0003
0010
0000
0000
0000
0100
0000
,
0000
0200
0000
0300
,
2002
0000
0000
0000
,
0000
0000
0000
0000
,
3003
0010
1000
0100
,
0001
0000
0000
0000
,
0000
0000
0000
0000
,
1000
0010
1000
0000
,
0000
0001
0010
0000
,
0100
1000
0000
0000
,
1000
0000
0001
1000
,
0010
1000
0000
0000
,
0010
1000
0000
0010
,
0000
0000
0000
0000
,
0100
1000
0010
0000
,
0000
0001
0010
0001
,
0010
0000
0100
1000
,
0100
0000
0000
0010
,
0100
1000
0010
1000
,
0100
0001
0100
1000
,
0000
0000
1000
0010
,
0000
0000
0001
0000
0010
0000
0200
0300
,
0000
0100
0001
0000
,
0010
0010
1000
0010
,
0000
0100
0001
0000
,
0100
1000
0010
0000
,
0000
0001
0001
0000
,
0010
0100
1000
0000
,
0000
0100
0001
0000
,
0100
1000
0010
0000
,
0000
0001
0100
0000
,
1000
0001
0000
0000
,
0000
0010
1000
0000
,
0100
1000
0100
0001
,
0000
0100
1000
0000
,
0010
0100
0001
0100
,
0000
0000
1000
0000
0010
0000
0000
1000
,
0000
0100
0000
0000
0000
0001
0000
0100
,
0000
0000
0000
1000
0000
1000
0000
0000
,
0010
1000
0100
0001
,
0010
0000
0000
0000
,
0001
0100
1000
0100
,
0000
0000
0100
0000
,
1000
0010
1000
0010
,
0000
0000
0000
0001
,
0000
0100
1000
0100
,
0000
0000
0000
0001
0000
0100
0000
0000
,
1000
0010
0001
0010
,
0000
0100
1000
0000
,
1000
0100
0001
0000
,
0000
1000
0010
1000
,
0100
0001
0100
0000
,
0020
0000
0200
0300
0000
0000
2000
0000
,
3030
0000
0000
0000
;

//---------------dance-single - ----------------
#NOTES:
     dance-single:
     :
     Beginner:
     2:
     0.141,0.244,0.013,0.006,0.000,153.000,2.000,1.000,0.000,0.000:
1000
0000
0000
0001
,
0000
0000
0010
0000
,
0000
0100
0000
0000
,
0010
0000
0000
1000
,
0000
0000
1001
0000
,
1000
0000
0000
0010
,
0000
0000
0100
0000
,
0000
0001
0000
0000
,
0010
0000
0000
0100
,
0000
0000
1000
0000
,
0000
0010
0000
0000
,
0001
0000
0000
0010
,
0000
0000
1000
0000
,
0000
0100
0000
0000
,
0001
0000
0000
0010
,
0000
0000
0100
0000
,
0000
1000
0000
0000
,
0010
0000
0000
0001
,
0000
0000
0001
0000
,
0000
1000
0000
0000
,
1000
0000
0000
0000
,
0010
0000
0000
0010
,
0000
0000
0100
0000
,
0000
0100
0000
0000
,
0001
0000
0000
0010
,
0000
0000
0000
1000
,
0000
0100
0000
0000
,
0000
1000
0000
0000
,
0100
0000
0010
0000
,
0000
0001
0000
0000
,
0010
0000
0000
0100
,
0000
0000
1000
0000
,
0000
0100
0000
0000
,
0010
0000
0000
0001
,
0000
0000
0000
0010
,
0000
0100
0000
0000
,
1000
0000
0000
0100
,
0000
0000
0010
0000
,
0000
0001
0000
0000
,
0010
0000
0000
0100
,
0000
0000
1000
0000
,
0000
0001
0000
0000
,
0000
0001
0000
0000
,
1000
0000
0000
1000
,
0000
0000
0000
0010
,
0000
0000
0100
0000
,
0000
0000
0001
0000
,
0000
0000
1000
0000
,
0000
0010
0000
0000
,
0100
0000
0001
0000
,
0000
0010
0000
0000
,
0100
0000
0000
0001
,
0000
0000
1000
0000
,
0000
0010
0000
0000
,
1000
0000
0000
0100
,
0000
0000
0001
0000
,
0000
0010
0000
0000
,
0001
0000
0000
1000
,
0000
0000
0000
0010
,
0000
0100
0000
0000
,
0001
0000
0000
0010
,
0000
0000
0001
0000
,
0000
0100
0000
0000
,
0000
1000
0000
0000
,
0100
0000
0000
0001
,
0000
0100
0000
0000
,
1000
0000
0000
0100
,
0000
0000
0001
0000
,
0000
0010
0000
0000
,
1000
0000
0000
0010
,
0000
0000
0001
0000
,
0000
0010
0000
0000
,
0000
1000
0000
0010
,
0000
0000
0000
0001
,
0000
0000
0100
0000
,
0001
0000
0000
0010
,
0000
0000
0001
0000
,
1001
0000
1000
0000
,
0020
0030
0000
0000
,
1000
0000
0010
0000
,
0000
1000
0000
0000
,
0100
0000
0000
0000
,
0000
0000
0000
0000
,
0001
0000
0000
0000
,
0000
0000
0000
0000
,
0010
0000
0000
0000
,
0000
0000
0000
0000
,
0100
0000
0000
0000
,
0000
0000
0000
0000
,
1000
0000
0000
0000
,
0000
0000
0000
0000
,
0010
0000
0000
0000
,
0000
0000
0000
0000
,
0001
0000
0000
0000
,
0000
0000
0000
0000
,
0100
0000
0000
0000
,
1000
0000
0000
0000
,
0010
0000
0000
0000
,
0100
0000
0000
0000
,
0001
0000
0000
0000
,
0010
0000
0000
0000
,
0001
0000
0000
0000
,
1000
0000
0000
0000
,
0100
0000
0000
0000
,
0010
0000
0000
0000
,
0100
0000
0000
0000
,
0001
0000
0000
0000
,
0010
0000
0000
0000
,
1000
0000
0000
0000
,
0100
0000
0000
0000
,
0001
0000
0000
0000
,
0010
0000
0000
0000
,
0100
0000
0000
0000
,
1000
0000
0000
0000
,
0001
0000
0000
0000
,
1000
0000
0000
0000
,
0001
0000
0000
0000
,
0010
0000
0000
0000
,
0100
0000
0000
0000
,
0010
0000
0000
0000
,
0100
0000
0000
0000
,
0001
0000
0000
0000
,
0010
0000
0000
0000
,
0001
0000
0000
0000
,
0010
0000
0000
0000
,
1000
0000
0000
0000
,
0100
0000
0000
0000
,
1000
0010
0100
0001
,
1000
0000
0010
0000
;
